annuarioaudio
» » To Travel Without Any Certain Destination - To Travel Without Any Certain Destination

To Travel Without Any Certain Destination - To Travel Without Any Certain Destination flac album

To Travel Without Any Certain Destination - To Travel Without Any Certain Destination flac album
Title:
To Travel Without Any Certain Destination
Performer:
To Travel Without Any Certain Destination
Style:
Tribal, IDM, Ambient
Released:
Country:
FLAC album size:
1333 mb
Other formats:
APE MMF MP1 WMA VOC MP4 RA
Genre:
Rating:
4.9 ✪

Includes unlimited streaming of To Travel Without Any Certain Destination via the free Bandcamp app, plus high-quality download in MP3, FLAC and more. ships out within 5 days. Signifier is you and a dark night in with headphones. It is us, stomping away on pulsating dance floors, a community. It's an artist, a creator, sharing a little piece of their private mindspace and trusting you and I to let it matter. Sounds like these can only meet somewhere in between.

J VA - Night Flight Chil. VA - Relaxing Travel . .Посетители, находящиеся в группе Гости, не могут оставлять комментарии к данной публикации.

To Travel Without Any Certain Destination - Студийный альбом от To Travel Without Any Certain Destination. В альбом вошло 14 треков. To Travel Without Any Certain Destination. Going to Places You Are Not Supposed to Go (L'Ombre remix). 4. 5.

Listen to To Travel Without Any Certain Destination now. Listen to To Travel Without Any Certain Destination in full in the this site app. Play on this site.

All Tracks Album gain : -. 7 dB Peak : . 00000 Statistics Read error : 0 Jitter error (maybe fixed) : 0 Retry sector count : 0 Damaged sector count : 0. Track 01 Filename : /Users/bc/cdrips/To Travel Without Any Certain Destination - To Travel Without Any Certain Destination (2012) /01 Ruins Of A Naked City. flac Pre-gap length : 00:02:00. wav" WAVE TRACK 4 AUDIO TITLE "The Rest" PERFORMER "To Travel Without Any Certain Destination" INDEX 01 00:00:00 FILE "05. Urban Isolation. wav" WAVE TRACK 5 AUDIO TITLE "Urban Isolation" PERFORMER "To Travel Without Any Certain Destination" INDEX 01 00:00:00 FILE "06. Going To Places You're Not Supposed To G. av" WAVE TRACK 6 AUDIO TITLE "Going To Places You're Not Supposed To Go" PERFORMER "To Travel Without Any Certain Destination" INDEX 01 00:00:00 FILE "07.

To Travel Without Any Certain Destination.

Tracklist Hide Credits

1 Ruins Of A Naked City 3:32
2 Stranger In Common Places 5:55
3 By No Means (Of Transportation) Necessary 5:48
4 The Rest 3:12
5 Urban Isolation 4:08
6 Going To Places You're Not Supposed To Go 5:31
7 While Others Dream 4:21
8 Let The Night Embraced By Fire 4:24
9 Guided By City Vibes 4:53
10 Being Lost 5:39
11 She Lures Me Into Another Universe 3:03
12 Let The Night Embraced By Fire (Contagious Orgasm Remix)
Remix – Contagious Orgasm
4:29
13 Going To Places You Are Not Supposed To Go (L'Ombre Remix)
Remix – L'Ombre
4:06
14 Let The Night Embraced By Fire (Hydrone Remix)
Remix – HyDrone
4:04

Credits

  • Design – Mirrormachine
  • Mastered By – Rob Lioy
  • Music By – Manos Chrisovergis
  • Photography By – Manos Chrisovergis

Other versions

Category Artist Title (Format) Label Category Country Year
sig006 To Travel Without Any Certain Destination To Travel Without Any Certain Destination ‎(CD, Album) Signifier sig006 US 2012